Your finest 4K & HD Porn Source

Yonitale - 27.05.2016
HD
Yonitale.16.05.27.Anna.Y.Humility.1.XXX.1080p.MP4-KTR

Eingetragen am 15.10.2016 um 01:16 Uhr

  • Größe 0,58 GB
  • Codec AVC x264
  • Source WEB-DL
  • Auflösung 1920x1080
  • Laufzeit 16mn 0s
  • Bitrate 5,00 MB/s

Passwort: NIMA4K
Hoster: Share-online, Uploaded

Stream - Yonitale - 27.05.2016 - Direkt abspielen

Release Media Infos

General
Complete name                            : yonitale.16.05.27.anna.y.humility.1.mp4
Format                                   : MPEG-4
Format profile                           : Base Media
Codec ID                                 : isom (isom/iso2/avc1/mp41)
File size                                : 581 MiB
Duration                                 : 16mn 0s
Overall bit rate                         : 5 072 Kbps
Writing application                      : Lavf57.40.101

Video
ID                                       : 1
Format                                   : AVC
Format/Info                              : Advanced Video Codec
Format profile                           : [email protected]
Format settings, CABAC                   : No
Format settings, ReFrames                : 3 frames
Format settings, GOP                     : M=1, N=50
Codec ID                                 : avc1
Codec ID/Info                            : Advanced Video Coding
Duration                                 : 16mn 0s
Duration_LastFrame                       : -21ms
Bit rate                                 : 4 940 Kbps
Width                                    : 1 920 pixels
Height                                   : 1 080 pixels
Display aspect ratio                     : 16:9
Frame rate mode                          : Constant
Frame rate                               : 25.000 fps
Color space                              : YUV
Chroma subsampling                       : 4:2:0
Bit depth                                : 8 bits
Scan type                                : Progressive
Bits/(Pixel*Frame)                       : 0.095
Stream size                              : 566 MiB (97%)
Writing library                          : x264 core 142 r2389 956c8d8
Encoding settings                        : cabac=0 / ref=3 / deblock=1:0:0 / analyse=0x1:0x111 / me=hex / subme=7 / psy=1 / psy_rd=1.00:0.00 / mixed_ref=1 / me_range=16 / chroma_me=1 / trellis=1 / 8x8dct=0 / cqm=0 / deadzone=21,11 / fast_pskip=1 / chroma_qp_offset=-2 / threads=12 / lookahead_threads=2 / sliced_threads=0 / nr=0 / decimate=1 / interlaced=0 / bluray_compat=0 / constrained_intra=0 / bframes=0 / weightp=0 / keyint=50 / keyint_min=26 / scenecut=0 / intra_refresh=0 / rc_lookahead=40 / rc=crf / mbtree=1 / crf=20.0 / qcomp=0.60 / qpmin=0 / qpmax=69 / qpstep=4 / vbv_maxrate=5000 / vbv_bufsize=5000 / crf_max=0.0 / nal_hrd=none / filler=0 / ip_ratio=1.40 / aq=1:1.00

Audio
ID                                       : 2
Format                                   : AAC
Format/Info                              : Advanced Audio Codec
Format profile                           : LC
Codec ID                                 : 40
Duration                                 : 16mn 0s
Duration_LastFrame                       : 19ms
Bit rate mode                            : Constant
Bit rate                                 : 128 Kbps
Channel(s)                               : 2 channels
Channel positions                        : Front: L R
Sampling rate                            : 48.0 KHz
Frame rate                               : 46.875 fps (1024 spf)
Compression mode                         : Lossy
Stream size                              : 14.7 MiB (3%)
Default                                  : Yes
Alternate group                          : 1