Your finest 4K & HD Porn Source

ATKPetites - 12.10.2016
HD
ATKPetites.16.10.12.Kharlie.Stone.Toys.XXX.1080p.MP4-KTR

Eingetragen am 15.10.2016 um 01:30 Uhr

  • Größe 0,75 GB
  • Codec AVC x264
  • Source WEB-DL
  • Auflösung 1920x1080
  • Laufzeit 17mn 6s
  • Bitrate 6,00 MB/s

Passwort: NIMA4K
Hoster: Share-online, Uploaded

Stream - ATKPetites - 12.10.2016 - Direkt abspielen

Release Media Infos

General
Complete name                            : atkp.16.10.12.kharlie.stone.toys.mp4
Format                                   : MPEG-4
Format profile                           : Base Media
Codec ID                                 : isom (isom/iso2/avc1/mp41)
File size                                : 749 MiB
Duration                                 : 17mn 6s
Overall bit rate mode                    : Variable
Overall bit rate                         : 6 123 Kbps
Writing application                      : Lavf57.40.101

Video
ID                                       : 1
Format                                   : AVC
Format/Info                              : Advanced Video Codec
Format profile                           : [email protected]
Format settings, CABAC                   : No
Format settings, ReFrames                : 3 frames
Format settings, GOP                     : M=1, N=60
Codec ID                                 : avc1
Codec ID/Info                            : Advanced Video Coding
Duration                                 : 17mn 4s
Bit rate mode                            : Variable
Bit rate                                 : 5 999 Kbps
Maximum bit rate                         : 12.0 Mbps
Width                                    : 1 920 pixels
Height                                   : 1 080 pixels
Display aspect ratio                     : 16:9
Frame rate mode                          : Variable
Frame rate                               : 29.970 (30000/1001) fps
Minimum frame rate                       : 29.970 fps
Maximum frame rate                       : 30.000 fps
Standard                                 : NTSC
Color space                              : YUV
Chroma subsampling                       : 4:2:0
Bit depth                                : 8 bits
Scan type                                : Progressive
Bits/(Pixel*Frame)                       : 0.097
Stream size                              : 732 MiB (98%)
Color range                              : Limited

Audio
ID                                       : 2
Format                                   : AAC
Format/Info                              : Advanced Audio Codec
Format profile                           : LC
Codec ID                                 : 40
Duration                                 : 17mn 6s
Bit rate mode                            : Constant
Bit rate                                 : 128 Kbps
Channel(s)                               : 2 channels
Channel positions                        : Front: L R
Sampling rate                            : 48.0 KHz
Frame rate                               : 46.875 fps (1024 spf)
Compression mode                         : Lossy
Stream size                              : 15.7 MiB (2%)
Default                                  : Yes
Alternate group                          : 1