Your finest 4K & HD Porn Source

AbbyWinters - 10.10.2016
HD
AbbyWinters.16.10.10.Sofie.R.Solo.XXX.1080p.MP4-KTR

Eingetragen am 15.10.2016 um 02:13 Uhr

  • Größe 1,72 GB
  • Codec AVC x264
  • Source WEB-DL
  • Auflösung 1920x1080
  • Laufzeit 21mn 43s
  • Bitrate 11,40 MB/s

Passwort: NIMA4K
Hoster: Share-online, Uploaded

Stream - AbbyWinters - 10.10.2016 - Direkt abspielen

Release Media Infos

General
Complete name                            : abbw.16.10.10.sofie.r.solo.mp4
Format                                   : MPEG-4
Format profile                           : Base Media
Codec ID                                 : isom (isom/iso2/avc1/mp41)
File size                                : 1.72 GiB
Duration                                 : 21mn 43s
Overall bit rate                         : 11.4 Mbps
Writing application                      : Lavf57.40.101

Video
ID                                       : 1
Format                                   : AVC
Format/Info                              : Advanced Video Codec
Format profile                           : [email protected]
Format settings, CABAC                   : Yes
Format settings, ReFrames                : 3 frames
Format settings, GOP                     : M=4, N=50
Codec ID                                 : avc1
Codec ID/Info                            : Advanced Video Coding
Duration                                 : 21mn 43s
Bit rate                                 : 11.2 Mbps
Width                                    : 1 920 pixels
Height                                   : 1 080 pixels
Display aspect ratio                     : 16:9
Frame rate mode                          : Constant
Frame rate                               : 50.000 fps
Standard                                 : PAL
Color space                              : YUV
Chroma subsampling                       : 4:2:0
Bit depth                                : 8 bits
Scan type                                : Progressive
Bits/(Pixel*Frame)                       : 0.108
Stream size                              : 1.70 GiB (99%)
Color range                              : Limited
Color primaries                          : BT.709
Transfer characteristics                 : BT.709
Matrix coefficients                      : BT.709

Audio
ID                                       : 2
Format                                   : AAC
Format/Info                              : Advanced Audio Codec
Format profile                           : LC
Codec ID                                 : 40
Duration                                 : 21mn 43s
Bit rate mode                            : Constant
Bit rate                                 : 157 Kbps
Channel(s)                               : 2 channels
Channel(s)_Original                      : 1 channel
Channel positions                        : Front: C
Sampling rate                            : 48.0 KHz
Frame rate                               : 46.875 fps (1024 spf)
Compression mode                         : Lossy
Stream size                              : 24.5 MiB (1%)
Default                                  : Yes
Alternate group                          : 1