Your finest 4K & HD Porn Source

CumFortune
HD
CumFortune.E444.Sue.XXX.1080p.MP4-KTR

Eingetragen am 15.10.2016 um 03:28 Uhr

  • Größe 1,38 GB
  • Codec AVC x264
  • Source WEB-DL
  • Auflösung 1920x1080
  • Laufzeit 24mn 12s
  • Bitrate 8,00 MB/s

Passwort: NIMA4K
Hoster: Share-online, Uploaded

Stream - CumFortune - Direkt abspielen

Release Media Infos

General
Complete name                            : cumfortune.e444.sue.mp4
Format                                   : MPEG-4
Format profile                           : Base Media
Codec ID                                 : isom (isom/iso2/avc1/mp41)
File size                                : 1.38 GiB
Duration                                 : 24mn 12s
Overall bit rate                         : 8 150 Kbps
Writing application                      : Lavf57.40.101

Video
ID                                       : 1
Format                                   : AVC
Format/Info                              : Advanced Video Codec
Format profile                           : Baseline@L1.3
Format settings, CABAC                   : No
Format settings, ReFrames                : 1 frame
Format settings, GOP                     : M=1, N=12
Codec ID                                 : avc1
Codec ID/Info                            : Advanced Video Coding
Duration                                 : 24mn 12s
Bit rate                                 : 7 994 Kbps
Width                                    : 1 920 pixels
Height                                   : 1 080 pixels
Display aspect ratio                     : 16:9
Frame rate mode                          : Constant
Frame rate                               : 25.000 fps
Color space                              : YUV
Chroma subsampling                       : 4:2:0
Bit depth                                : 8 bits
Scan type                                : Progressive
Bits/(Pixel*Frame)                       : 0.154
Stream size                              : 1.35 GiB (98%)

Audio
ID                                       : 2
Format                                   : AAC
Format/Info                              : Advanced Audio Codec
Format profile                           : LC
Codec ID                                 : 40
Duration                                 : 24mn 12s
Bit rate mode                            : Constant
Bit rate                                 : 152 Kbps
Channel(s)                               : 2 channels
Channel positions                        : Front: L R
Sampling rate                            : 44.1 KHz
Frame rate                               : 43.066 fps (1024 spf)
Compression mode                         : Lossy
Stream size                              : 26.3 MiB (2%)
Default                                  : Yes
Alternate group                          : 1