Your finest 4K & HD Porn Source

Passion-HD - 15.10.2016
HD
Passion-HD.16.10.15.Alexis.Brill.After.Workout.Rub.Down.XXX.1080p.MP4-KTR

Eingetragen am 15.10.2016 um 03:33 Uhr

  • Größe 1,65 GB
  • Codec AVC x264
  • Source WEB-DL
  • Auflösung 1920x1080
  • Laufzeit 31mn 36s
  • Bitrate 7,00 MB/s

Passwort: NIMA4K
Hoster: Share-online, Uploaded

Stream - Passion-HD - 15.10.2016 - Direkt abspielen

Release Media Infos

General
Complete name                            : passion-hd.16.10.15.alexis.brill.after.workout.rub.down.mp4
Format                                   : MPEG-4
Format profile                           : Base Media
Codec ID                                 : isom (isom/iso2/avc1/mp41)
File size                                : 1.65 GiB
Duration                                 : 31mn 36s
Overall bit rate                         : 7 494 Kbps
Writing application                      : Lavf57.40.101

Video
ID                                       : 1
Format                                   : AVC
Format/Info                              : Advanced Video Codec
Format profile                           : Baseline@L3.1
Format settings, CABAC                   : No
Format settings, ReFrames                : 2 frames
Codec ID                                 : avc1
Codec ID/Info                            : Advanced Video Coding
Duration                                 : 31mn 36s
Duration_LastFrame                       : -21ms
Bit rate                                 : 7 361 Kbps
Width                                    : 1 920 pixels
Height                                   : 1 080 pixels
Display aspect ratio                     : 16:9
Frame rate mode                          : Constant
Frame rate                               : 23.976 (23976/1000) fps
Color space                              : YUV
Chroma subsampling                       : 4:2:0
Bit depth                                : 8 bits
Scan type                                : Progressive
Bits/(Pixel*Frame)                       : 0.148
Stream size                              : 1.63 GiB (98%)
Writing library                          : x264 core 142 r2431 a5831aa
Encoding settings                        : cabac=0 / ref=2 / deblock=1:0:0 / analyse=0x1:0x111 / me=hex / subme=6 / psy=1 / psy_rd=1.00:0.00 / mixed_ref=1 / me_range=16 / chroma_me=1 / trellis=1 / 8x8dct=0 / cqm=0 / deadzone=21,11 / fast_pskip=1 / chroma_qp_offset=-2 / threads=2 / lookahead_threads=1 / sliced_threads=0 / nr=0 / decimate=1 / interlaced=0 / bluray_compat=0 / constrained_intra=0 / bframes=0 / weightp=0 / keyint=250 / keyint_min=23 / scenecut=40 / intra_refresh=0 / rc_lookahead=30 / rc=crf / mbtree=1 / crf=18.0 / qcomp=0.60 / qpmin=0 / qpmax=69 / qpstep=4 / ip_ratio=1.40 / aq=1:1.00

Audio
ID                                       : 2
Format                                   : AAC
Format/Info                              : Advanced Audio Codec
Format profile                           : LC
Codec ID                                 : 40
Duration                                 : 31mn 36s
Duration_LastFrame                       : 21ms
Bit rate mode                            : Constant
Bit rate                                 : 128 Kbps
Channel(s)                               : 2 channels
Channel positions                        : Front: L R
Sampling rate                            : 48.0 KHz
Frame rate                               : 46.875 fps (1024 spf)
Compression mode                         : Lossy
Stream size                              : 28.9 MiB (2%)
Default                                  : Yes
Alternate group                          : 1